^
Posteado por:
estreno
  • Posts16027
  • Comentarios390
  • RangoDios Mega
  • The Little Rascals Save the Day[HDRip][VOSE][2014]






    Esta son las travesuras de Spanky y sus amigos Alfalfa, Darla, Buckwheat, Petey el perro y los demás!. Los Rascals tratan de reunir por todos los medios el dinero necesario para mantener abierta la panadería de su abuela. Pero, el problema es que parece que no saben hacer nada bien! No logran ganar un centavo ni lavando mascotas ni con su terrible servicio de taxi. Su única esperanza es ganar el premio del concurso de talentos locales, pero ¿han oído cantar a Alfalfa?




    Titulo Original: The Little Rascals Save the Day
    Otros Titulos: Pequeños Traviesos Al Rescate
    Director: Alex Zamm
    Reparto: Valerie Azlynn, Doris Roberts, Mindy Sterling
    Año: 2014
    Duración: 93 min.
    País: Estados Unidos
    Género: Infantil. Comedia | Cine familiar

    General
    Format                                   : AVI
    Format/Info                              : Audio Video Interleave
    Format profile                           : OpenDML
    File size                                : 1.05 GiB
    Duration                                 : 1h 37mn
    Overall bit rate                         : 1 534 Kbps
    Writing application                      : Lavf52.84.0

    Video
    ID                                       : 0
    Format                                   : MPEG-4 Visual
    Codec ID                                 : FMP4
    Duration                                 : 1h 37mn
    Bit rate                                 : 1 390 Kbps
    Width                                    : 720 pixels
    Height                                   : 400 pixels
    Display aspect ratio                     : 16:9
    Frame rate                               : 23.976 fps
    Color space                              : YUV
    Chroma subsampling                       : 4:2:0
    Compression mode                         : Lossy
    Bits/(Pixel*Frame)                       : 0.201
    Stream size                              : 973 MiB (91%)

    Audio
    ID                                       : 1
    Format                                   : MPEG Audio
    Format version                           : Version 1
    Format profile                           : Layer 3
    Mode                                     : Joint stereo
    Codec ID                                 : 55
    Codec ID/Hint                            : MP3
    Duration                                 : 1h 37mn
    Bit rate mode                            : Constant
    Bit rate                                 : 128 Kbps
    Channel(s)                               : 2 channels
    Sampling rate                            : 48.0 KHz
    Compression mode                         : Lossy
    Stream size                              : 89.6 MiB (8%)
    Alignment                                : Aligned on interleaves
    Interleave, duration                     : 24 ms (0.58 video frame)
    Writing library                          : LAME3.98.4







    http://www44.zippyshare.com/v/60745463/file.html
    http://www63.zippyshare.com/v/75123960/file.html
    http://www55.zippyshare.com/v/67084759/file.html
    http://www23.zippyshare.com/v/42703195/file.html
    http://www10.zippyshare.com/v/93884963/file.html
    http://www62.zippyshare.com/v/15258966/file.html

    Otros posts que te van a interesar:

    0 Comentarios


    Cargando comentarios espera un momento...
    No tienes permisos para comentar.

    Para poder comentar necesitas estar Registrado. O.. ya tienes usuario? Logueate!
    Mega Descargas © 2014 All rights reserved
    Powered by PHPost
    Puedes evitar la publicidad si te registras en el sitio, puedes registrate aqui o en dos pasos con tus cuentas de