^
Posteado por:
estreno
  • Posts16078
  • Comentarios391
  • RangoDios Mega
  • Lotoman 003 [TSHQ][Latino][2014]






    Los hermanos Marchena aceptan una propuesta donde descubren el emocionante mundo de los agentes secretos. En esta nueva aventura tratan de detectar a sospechosos integrantes de algo ilícito que le llaman como ?La Cosa Aquella?. La curiosa misión pone a prueba su integridad y se dan cuenta de que, a veces, sencillamente es difícil hacer lo correcto.




    Título original: Lotoman 003
    Año: 2014
    País: República Dominicana
    Director: Archie Lopez
    Guión: Archie Lopez
    Reparto: Dalisa Alegria, Fernando Carrillo, Julián Gil, Elizabeth Ruiz, Fausto Mata, La Materialista, Raymond Pozo, Sergio Carlo, Miguel Céspedes, Chelsy García, Fefita La Grande, Olga Bucarelli, Tony Dandrades, Gerald Ogando
    Productora: Panamericana de Producciones
    Género: Comedia

    General
    Format                                   : AVI
    Format/Info                              : Audio Video Interleave
    File size                                : 998 MiB
    Duration                                 : 1h 35mn
    Overall bit rate                         : 1 457 Kbps
    Writing application                      : Lavf52.84.0

    Video
    ID                                       : 0
    Format                                   : MPEG-4 Visual
    Format profile                           : Simple@L1
    Format settings, BVOP                    : No
    Format settings, QPel                    : No
    Format settings, GMC                     : No warppoints
    Format settings, Matrix                  : Default (H.263)
    Codec ID                                 : XVID
    Codec ID/Hint                            : XviD
    Duration                                 : 1h 35mn
    Bit rate                                 : 1 252 Kbps
    Width                                    : 720 pixels
    Height                                   : 528 pixels
    Display aspect ratio                     : 4:3
    Frame rate                               : 25.000 fps
    Color space                              : YUV
    Chroma subsampling                       : 4:2:0
    Bit depth                                : 8 bits
    Scan type                                : Progressive
    Compression mode                         : Lossy
    Bits/(Pixel*Frame)                       : 0.132
    Stream size                              : 858 MiB (86%)
    Writing library                          : Lavc52.97.0

    Audio
    ID                                       : 1
    Format                                   : MPEG Audio
    Format version                           : Version 1
    Format profile                           : Layer 3
    Mode                                     : Joint stereo
    Codec ID                                 : 55
    Codec ID/Hint                            : MP3
    Duration                                 : 1h 35mn
    Bit rate mode                            : Constant
    Bit rate                                 : 192 Kbps
    Channel(s)                               : 2 channels
    Sampling rate                            : 48.0 KHz
    Compression mode                         : Lossy
    Stream size                              : 132 MiB (13%)
    Alignment                                : Aligned on interleaves
    Interleave, duration                     : 24 ms (0.60 video frame)
    Writing library                          : LAME3.98.4







    http://www30.zippyshare.com/v/77067655/file.html
    http://www25.zippyshare.com/v/5403423/file.html
    http://www5.zippyshare.com/v/99122479/file.html
    http://www6.zippyshare.com/v/40402450/file.html
    http://www24.zippyshare.com/v/30435715/file.html
    [/size]

    Otros posts que te van a interesar:

    0 Comentarios


    Cargando comentarios espera un momento...
    No tienes permisos para comentar.

    Para poder comentar necesitas estar Registrado. O.. ya tienes usuario? Logueate!
    Mega Descargas © 2014 All rights reserved
    Powered by PHPost